#TITLE:幸福氧气;
#SUBTITLE:;
#ARTIST:卓文萱;
#TITLETRANSLIT:;
#SUBTITLETRANSLIT:;
#ARTISTTRANSLIT:;
#CREDIT:;
#BANNER:Ҹ-logo.jpg;
#BACKGROUND:Ҹ.jpg;
#LYRICSPATH:;
#CDTITLE:Lan.png;
#MUSIC:Ҹ.mp3;
#OFFSET:0.000;
#SAMPLESTART:100.000;
#SAMPLELENGTH:12.000;
#SELECTABLE:YES;
#BPMS:0.000=86.490,94.000=172.980,95.500=34.596,96.000=86.490;
#STOPS:;
#BGCHANGES:;
// cache tags:
#FIRSTBEAT:8.000;
#LASTBEAT:175.500;
#SONGFILENAME:Songs/Super Dancer Online/Ҹ/Ҹ.sm;
#HASMUSIC:1;
#HASBANNER:1;
#MUSICLENGTH:127.363;
// end cache tags

//---------------dance-single - sky----------------
#NOTES:
     dance-single:
     sky:
     Hard:
     10:
     1.000,1.000,1.000,0.039,1.000,632.000,257.000,5.000,0.000,70.000:

0000
0000
0000
0000
,
0000
0000
0000
0000
,
1000
0100
0010
0001
0100
0010
1000
0010
0001
0010
0100
1000
0010
0001
1000
0100
,
0001
0010
1000
0100
0001
0100
1000
0100
0010
1000
0001
0010
1000
0001
1000
0100
,
0010
1000
0010
0001
0100
1000
0001
0010
0100
1000
0010
0100
0001
1000
0100
0010
,
1000
0000
0100
0000
0001
0000
0010
0000
1000
0000
0100
0000
0001
0000
0010
0000
1000
0100
0010
0001
0010
0100
1000
0100
0010
0001
0010
0100
1000
0100
0010
0001
,
1100
0010
0011
0100
1010
1100
0011
0100
1000
0001
0110
1000
1010
0101
0110
0001
,
1010
0100
0110
0010
1100
0101
1010
0100
0010
0001
1100
0100
0011
0101
1010
0100
,
1010
0001
1101
0010
1001
1010
0111
0001
1101
0010
0101
0001
0011
1000
0111
0100
,
1010
0001
1101
0010
1001
1010
1110
0100
0001
0110
1100
0011
0000
0000
1110
0000
,
0110
0001
1000
0100
0011
0011
0100
0010
1100
0010
0100
0001
1100
1100
0010
0100
,
1010
0100
0010
1000
0110
0110
0001
0010
0101
0010
0100
0001
1010
1010
0001
0100
,
0011
1000
0010
0100
1100
1100
0001
0100
0101
0010
1000
0010
0011
0011
0100
1000
,
0110
0001
1000
0100
0011
0011
0100
0010
1100
0010
0100
0001
1100
1100
0010
0100
,
1100
0100
0010
1000
0111
0111
0001
0010
0101
0010
0100
0001
1110
1110
0001
0100
,
0110
1000
0010
0100
1101
1101
0001
0100
0101
0010
1000
0010
1011
1011
0100
1000
,
0101
1000
0010
0100
1110
1101
0001
0100
0101
0010
0100
1000
0111
1011
0100
0001
,
1010
0001
1000
0010
1101
1011
0100
0010
1000
0100
0011
0001
1010
0110
1000
0100
,
0011
0000
0110
0000
1100
0010
0000
0000
0011
0100
0000
0000
1010
0100
0000
0000
,
0101
0000
0000
0000
1100
0000
0000
0000
0011
0000
0100
0000
0000
0000
0000
0000
0001
0010
1000
0100
0010
0100
0001
1000
0010
0100
0001
1000
0001
0100
0010
1000
,
0011
0000
1100
0000
0000
0000
0101
0010
0000
1100
0000
0000
1000
0001
0100
0010
,
1100
0000
0000
0000
0011
0000
0000
0000
0110
0000
0001
0000
1100
0000
1010
0000
0001
0000
0100
0000
0001
0000
0100
0000
1000
0010
0100
0001
1000
0010
0001
0100
,
1011
0100
0101
0010
1100
0010
0101
0100
1010
0010
0101
1000
0011
1000
0101
1000
,
0110
1000
0101
0010
1010
0100
0101
0000
1011
0000
0000
0000
0000
0000
0000
0000
,
1010
0110
1100
0001
1010
0011
1101
0000
1010
0110
1100
0001
1010
0011
1101
0000
,
0101
0110
1100
0010
0101
0110
1110
0000
0101
0110
1100
0010
0101
0110
1110
0000
,
0011
1010
1010
0100
0011
1010
1011
0000
0011
1010
1010
0100
0011
1010
1011
0000
,
0101
0000
0110
0000
0101
0000
0010
0000
0101
0000
0110
0000
1101
0000
0010
0000
0101
0000
0110
0000
1101
0000
0110
0000
0010
0100
1000
0100
0010
0001
0010
0100
,
1010
0110
1101
0010
1010
0011
1101
0010
1010
0011
1101
0010
1010
0011
1011
0010
,
0101
0110
1110
0001
0101
0110
1110
0001
0101
0110
1110
0001
0101
0110
1110
0001
,
0011
1010
1011
1000
0011
1010
1011
1000
0011
1010
1011
1000
0011
1010
1011
1000
,
0101
0010
0101
0010
0001
0100
1000
0010
0101
0010
1010
1000
1100
0100
0011
0001
,
2100
0000
0010
0001
0000
0010
0100
0000
0010
0000
0100
0001
0000
0010
0001
0000
,
3120
0000
1000
0001
0000
0100
1000
0000
0001
0000
0100
0001
0000
0001
1000
0000
,
0231
0000
1000
0010
0000
0001
1000
0000
0010
0000
1000
0001
0000
0010
1000
0000
,
2312
0010
0010
0010
0010
0010
0010
0010
0110
0000
0000
0000
0000
0000
3113
0001
,
0110
0001
1000
0100
1001
0011
0100
0010
1100
0010
0100
0001
1001
1100
0010
0100
,
1010
0100
0010
1000
0101
0110
0001
0010
0101
0010
0100
0001
1010
0110
0001
0100
,
0011
1000
0010
0100
1001
1100
0001
0100
0101
0010
1000
0010
1001
0011
0100
1000
,
0011
0100
0010
0001
1100
0001
0110
1100
0011
0100
0010
0100
0010
0100
0010
0001
,
1100
0100
0010
1000
1011
0111
0001
0010
0101
0010
0100
0001
1101
1110
0001
0100
,
0110
1000
0010
0100
1011
1101
0001
0100
0101
0010
1000
0010
1101
1011
0100
1000
,
0101
1000
0010
0100
1110
1101
0001
0100
0101
0010
0100
1000
0111
1011
0100
0001
,
1010
0001
1000
0010
1101
1011
0100
0010
1100
0110
0011
1100
0000
0000
0111
0000
;
